MejorTorrent : variados extend
Inicio   -   Ayuda   -   Contacto   -   últimos Torrents

Torrents
Documentales842
Películas11256
Películas HD2068
Series1961
  Episodios22513
Series HD244
  Episodios2743
Juegos2689
  PC1736
Variados1521
  Deportes36
  Programas592
  Videoclips102
  Otros722
Música MP3 3525
Total Torrents57258

Información
Esta web no contiene ningún tipo de fichero almacenado.

Todos los archivos se comparten mediante el BitTorrent, un programa P2P de intercambio entre usuarios.



Descarga la última versión de uTorrent y baja a la máxima velocidad:
Skrillex - Summit (Ft. Ellie Goulding)
Total Descargas:  1.559 En Octubre:  1.559

Fecha:  2016-10-05



Torrent:      Descargar         Tamaño:  67,75 MB
Descripción:

General
Complete name : Skrillex - Summit (Ft. Ellie Goulding) (1080p) x264 [VX] [P2PDL].mp4
Format : MPEG-4
Format profile : Base Media / Version 2
Codec ID : mp42
File size : 61.2 MiB
Duration : 6mn 10sles

Video
ID : 1
Format : AVC
Format/Info : Advanced Video Codec Bit rate mode : Variable Bit rate : 1
250 Kbps Width : 1 920 pixels Height : 1 080 pixels Display aspect ratio :
16:9 Frame rate mode : Constant Frame rate : 25.000 fps Color space :
YUV Chroma subsampling : 4:2:0 Bit depth : 8 bits Scan type :
Progressive Bits/(Pixel*Frame) : 0.024 Stream size : 55.3 MiB (90%)
Writing library : x264 core 128

Audio
ID : 2 Format : AAC Format/Info : Advanced Audio Codec Bit rate : 128
Kbps Channel(s) : 2 channels Channel positions : Front: L R Sampling rate
: 48.0 KHz Stream size : 5.66 MiB (9%)



Volver al índice de Variados







Datos legales


DMCA.com Protection Status
19:55:43
computer