MejorTorrent : variados extend
Inicio   -   Ayuda   -   Contacto   -   últimos Torrents

Torrents
Documentales842
Películas11256
Películas HD2068
Series1961
  Episodios22513
Series HD244
  Episodios2743
Juegos2689
  PC1736
Variados1521
  Deportes36
  Programas592
  Videoclips102
  Otros722
Música MP3 3525
Total Torrents57258

Información
Esta web no contiene ningún tipo de fichero almacenado.

Todos los archivos se comparten mediante el BitTorrent, un programa P2P de intercambio entre usuarios.



Descarga la última versión de uTorrent y baja a la máxima velocidad:
Ariana Grande ft. Iggy Azalea - Problem
Total Descargas:  3.776 En Octubre:  3.776

Fecha:  2016-05-27



Torrent:      Descargar         Tamaño:  41,51 MB
Descripción:

General
Format : MPEG-4
Format profile : Base Media
File size : 41.5 MiB
Duration : 3mn 27s
Overall bit rate mode : Variable
Overall bit rate : 1 681 Kbps

Video
Format : AVC
Format profile : Main@L3.1
Format settings, CABAC : Yes
Format settings, ReFrames : 3 frames
Duration : 3mn 27s
Bit rate : 1 549 Kbps
Width : 1 280 pixels
Height : 720 pixels
Display aspect ratio : 16:9
Frame rate mode : Variable
Frame rate : 23.976 fps
Stream size : 38.2 MiB (92%)
Title : Ariana Grande ft. Iggy Azalea - Problem 720p x264 AAC E-Subs [GWC]
Tagged date : UTC 2014-05-31 08:06:45

Audio
Format : MPEG Audio
Format version : Version 1
Format profile : Layer 3
Bit rate mode : Variable
Channel(s) : 2 channels
Sampling rate : 44.1 KHz
Stream size : 3.16 MiB (8%)
Writing library : LAME3.99.3
Language : English

Text
Format : Timed Text
Title : Rainbow Subs by [GWC]
Language : English



Volver al índice de Variados







Datos legales


DMCA.com Protection Status
20:28:04
computer