MejorTorrent : variados extend
Inicio   -   Ayuda   -   Contacto   -   últimos Torrents

Torrents
Documentales842
Películas11256
Películas HD2068
Series1961
  Episodios22513
Series HD244
  Episodios2743
Juegos2689
  PC1736
Variados1521
  Deportes36
  Programas592
  Videoclips102
  Otros722
Música MP3 3525
Total Torrents57258

Información
Esta web no contiene ningún tipo de fichero almacenado.

Todos los archivos se comparten mediante el BitTorrent, un programa P2P de intercambio entre usuarios.



Descarga la última versión de uTorrent y baja a la máxima velocidad:
Jason Derulo Ft. 2 Chainz - Talk Dirty
Total Descargas:  2.009 En Octubre:  2.009

Fecha:  2016-05-10



Torrent:      Descargar         Tamaño:  90,58 MB
Descripción:

General
Complete name : Jason Derulo Ft. 2 Chainz - Talk Dirty [Explicit] 1080p.MP4
Format : MPEG-4
Format profile : Base Media
Codec ID : isom
File size : 90.6 MiB
Duration : 3mn 7s
Overall bit rate mode : Variable
Overall bit rate : 4 059 Kbps
Encoded date : UTC 2013-09-10 14:04:33
Tagged date : UTC 2013-09-10 14:04:33

Video
ID : 1
Format : AVC
Format/Info : Advanced Video Codec
Format profile : High@L4.0
Format settings, CABAC : Yes
Format settings, ReFrames : 2 frames
Codec ID : avc1
Codec ID/Info : Advanced Video Coding
Duration : 3mn 7s
Bit rate : 3 806 Kbps
Width : 1 920 pixels
Height : 1 080 pixels
Display aspect ratio : 16:9
Frame rate mode : Constant
Frame rate : 23.976 fps
Color space : YUV
Chroma subsampling : 4:2:0
Bit depth : 8 bits
Scan type : Progressive
Bits/(Pixel*Frame) : 0.077
Stream size : 84.8 MiB (94%)
Encoded date : UTC 2013-09-10 14:04:33
Tagged date : UTC 2013-09-10 14:04:33

Audio
ID : 2
Format : AAC
Format/Info : Advanced Audio Codec
Format profile : LC
Codec ID : 40
Duration : 3mn 7s
Bit rate mode : Variable
Bit rate : 254 Kbps
Channel(s) : 2 channels
Channel positions : Front: L R
Sampling rate : 44.1 KHz
Compression mode : Lossy
Delay relative to video : 42ms
Stream size : 5.66 MiB (6%)
Encoded date : UTC 2013-09-10 14:04:15
Tagged date : UTC 2013-09-10 14:04:15



Volver al índice de Variados







Datos legales


DMCA.com Protection Status
11:03:03
computer