MejorTorrent : variados extend
Inicio   -   Ayuda   -   Contacto   -   últimos Torrents

Torrents
Documentales842
Películas11256
Películas HD2068
Series1961
  Episodios22513
Series HD244
  Episodios2743
Juegos2689
  PC1736
Variados1521
  Deportes36
  Programas592
  Videoclips102
  Otros722
Música MP3 3525
Total Torrents57258

Información
Esta web no contiene ningún tipo de fichero almacenado.

Todos los archivos se comparten mediante el BitTorrent, un programa P2P de intercambio entre usuarios.



Descarga la última versión de uTorrent y baja a la máxima velocidad:
Passenger - Let Her Go
Total Descargas:  2.505 En Octubre:  2.505

Fecha:  2016-04-29



Torrent:      Descargar         Tamaño:  86,66 MB
Descripción:

General
Complete name : Passenger - Let Her Go [Music Video] 1080p.MP4
Format : MPEG-4
Format profile : Base Media
Codec ID : isom
File size : 86.7 MiB
Duration : 4mn 14s
Overall bit rate mode : Variable
Overall bit rate : 2 860 Kbps
Encoded date : UTC 2013-09-16 06:19:46
Tagged date : UTC 2013-09-16 06:19:46

Video
ID : 1
Format : AVC
Format/Info : Advanced Video Codec
Format profile : High@L4.0
Format settings, CABAC : Yes
Format settings, ReFrames : 2 frames
Codec ID : avc1
Codec ID/Info : Advanced Video Coding
Duration : 4mn 14s
Bit rate : 2 732 Kbps
Width : 1 920 pixels
Height : 1 080 pixels
Display aspect ratio : 16:9
Frame rate mode : Constant
Frame rate : 25.000 fps
Color space : YUV
Chroma subsampling : 4:2:0
Bit depth : 8 bits
Scan type : Progressive
Bits/(Pixel*Frame) : 0.053
Stream size : 82.8 MiB (96%)
Encoded date : UTC 2013-09-16 06:19:46
Tagged date : UTC 2013-09-16 06:19:46

Audio
ID : 2
Format : AAC
Format/Info : Advanced Audio Codec
Format profile : LC
Codec ID : 40
Duration : 4mn 14s
Bit rate mode : Variable
Bit rate : 126 Kbps
Channel(s) : 2 channels
Channel positions : Front: L R
Sampling rate : 44.1 KHz
Compression mode : Lossy
Delay relative to video : 40ms
Stream size : 3.81 MiB (4%)
Encoded date : UTC 2013-12-03 06:18:19
Tagged date : UTC 2013-12-03 06:18:19



Volver al índice de Variados







Datos legales


DMCA.com Protection Status
11:01:14
computer