unverlab.com
Inicio   -   Ayuda   -   Contacto   -   Últimos Torrents

Torrents
Documentales 842
Películas 11256
Películas HD 2068
Series 1961
   Episodios 22513
Series HD 244
   Episodios 2743
Juegos 2689
   PC 1736
Variados 1521
   Deportes 36
   Programas 592
   Videoclips 102
   Otros 722
Música MP3 3525
Total Torrents 57258

Información
Esta web no contiene ningún tipo de fichero almacenado.

Todos los archivos se comparten mediante el BitTorrent, un programa P2P de intercambio entre usuarios.



Descarga la última versión de uTorrent y baja a la máxima velocidad:
Justin Bieber - What Do You Mean
Total Descargas:  5.112 En Diciembre:  4.178

Fecha:  2015-12-13



Torrent:      Descargar         Tamaño:  59,55 MB
Descripción:

General
Format : MPEG-4
Format profile : Base Media / Version 2
Codec ID : mp42
File size : 59.5 MiB
Duration : 3mn 25s
Overall bit rate mode : Variable
Overall bit rate : 2 426 Kbps

Video
ID : 1
Format : AVC
Format/Info : Advanced Video Codec
Format profile : High@L3.1
Codec ID/Info : Advanced Video Coding
Duration : 3mn 25s
Bit rate : 2 232 Kbps
Width : 1 280 pixels
Height : 720 pixels
Display aspect ratio : 16:9
Frame rate mode : Constant
Frame rate : 23.976 fps
Bit depth : 8 bits
Stream size : 54.8 MiB (92%)

Audio
ID : 2
Format : AAC
Format/Info : Advanced Audio Codec
Format profile : LC
Codec ID : 40
Duration : 3mn 25s
Bit rate mode : Variable
Bit rate : 192 Kbps
Channel(s) : 2 channels
Channel positions : Front: L R
Sampling rate : 44.1 KHz
Compression mode : Lossy
Stream size : 4.71 MiB (8%)
Language : English



Volver al índice de Variados







Datos legales


03:28:18
computer